<?xml version="1.0" standalone="no"?>
<!DOCTYPE svg PUBLIC "-//W3C//DTD SVG 1.1//EN" "http://www.w3.org/Graphics/SVG/1.1/DTD/svg11.dtd" >
<svg xmlns="http://www.w3.org/2000/svg" xmlns:xlink="http://www.w3.org/1999/xlink" version="1.1">
<metadata></metadata>
<defs>
<font id="nexaheavy" horiz-adv-x="1617" >
<font-face units-per-em="2048" ascent="1448" descent="-600" />
<missing-glyph horiz-adv-x="485" />
<glyph horiz-adv-x="0" />
<glyph unicode="&#xd;" horiz-adv-x="681" />
<glyph unicode=" "  horiz-adv-x="485" />
<glyph unicode="&#x09;" horiz-adv-x="485" />
<glyph unicode="&#xa0;" horiz-adv-x="485" />
<glyph unicode="!" horiz-adv-x="612" d="M127 170q0 85 57 133q55 49 123 49q67 0 125 -49q55 -49 55 -133q0 -85 -55 -131q-58 -49 -125 -49q-68 0 -123 49q-57 45 -57 131zM147 1436h318l-8 -1000h-303q0 279 -2 500q-1 84 -2 193.5t-2 183.5t-1 123z" />
<glyph unicode="&#x22;" horiz-adv-x="940" d="M131 877v555h268v-555h-268zM537 877v555h272v-555h-272z" />
<glyph unicode="#" horiz-adv-x="1433" d="M74 276v240h217l94 375h-170v235h225l76 308h275l-76 -308h223l78 308h272l-76 -308h148v-237h-207l-96 -373h162v-240h-218l-67 -276h-275l68 276h-225l-68 -276h-272l67 276h-155zM541 502h258l102 405h-258z" />
<glyph unicode="$" horiz-adv-x="1464" d="M66 322l266 129q48 -98 164 -160q116 -64 243 -64q165 0 244 39q84 38 84 148q0 169 -338 196q-80 7 -180 23q-83 13 -158 45q-83 30 -135 76q-51 45 -86 123t-35 182q3 191 141 299t347 123v170h270v-170q311 -35 432 -291l-252 -117q-30 65 -125 115q-96 47 -209 47 q-122 0 -202 -45q-83 -47 -86 -131q0 -44 24 -74q23 -33 72 -49q53 -17 94 -25q35 -7 113 -14q69 -6 184 -27q77 -17 170 -53q88 -35 147 -84q57 -51 97 -133q37 -81 37 -186q0 -202 -125 -318q-125 -119 -369 -143v-195h-281v193q-184 18 -333 119q-151 99 -215 252z" />
<glyph unicode="%" horiz-adv-x="1669" d="M70 1114q0 131 90 232q90 96 250 96q162 0 252 -96q88 -98 88 -232q0 -137 -88 -231q-88 -99 -252 -99q-162 0 -250 99q-90 96 -90 231zM201 -2l942 1434h321l-938 -1434h-325zM293 1114q0 -46 31 -82q30 -35 86 -35t86 35q28 36 28 82q0 48 -28 84q-30 35 -86 35 t-86 -35q-31 -36 -31 -84zM920 315q0 131 90 232q90 96 250 96q161 0 251 -96q88 -98 88 -232q0 -137 -88 -231q-88 -98 -251 -98q-162 0 -250 98q-90 96 -90 231zM1145 313q0 -44 31 -80q30 -34 84 -34q53 0 83 34q29 37 29 80q0 47 -29 84q-29 33 -83 33t-84 -35 q-31 -36 -31 -82z" />
<glyph unicode="&#x26;" horiz-adv-x="1468" d="M98 408q-3 108 62 194q62 86 172 135q-85 26 -139 117q-54 88 -54 166q0 120 54 211q55 93 139 137q93 50 178 70q93 22 186 22q230 0 377 -100q151 -103 166 -320h-293q-12 78 -88 121q-79 42 -170 39q-97 -3 -164 -49q-67 -49 -67 -131q0 -162 227 -162h668v-244h-115 v-184q0 -57 39 -96q41 -44 104 -29v-315q-126 -16 -211 26q-90 44 -120 160q-58 -100 -168 -151q-111 -51 -238 -48q-109 0 -197 21q-90 21 -170 68q-82 46 -129 135q-46 84 -49 207zM414 451q0 -58 26 -97q28 -41 70 -59q44 -18 86 -27q39 -8 88 -8q42 0 104 16 q56 14 113 68q53 50 53 121v149h-286q-123 0 -187 -49q-67 -49 -67 -114z" />
<glyph unicode="'" horiz-adv-x="528" d="M131 872v555h266v-555h-266z" />
<glyph unicode="(" horiz-adv-x="739" d="M72 623q0 308 131 555q133 248 358 405l148 -203q-162 -133 -248 -338q-87 -206 -84 -419q0 -241 82 -439q79 -198 239 -331l-147 -199q-479 317 -479 969z" />
<glyph unicode=")" horiz-adv-x="739" d="M31 1380l147 203q226 -158 359 -405q131 -247 131 -555q0 -652 -480 -969l-147 199q160 133 242 331q79 198 79 439q3 215 -83 419q-86 205 -248 338z" />
<glyph unicode="*" horiz-adv-x="839" d="M86 1143l57 184l183 -67l-11 190h211l-22 -190l192 71l56 -188l-187 -39l135 -154l-159 -119l-117 175l-115 -179l-166 123l127 150z" />
<glyph unicode="+" horiz-adv-x="1017" d="M88 543v258h283v295h270v-295h289v-258h-289v-295h-270v295h-283z" />
<glyph unicode="," horiz-adv-x="538" d="M102 127q0 99 82 139q83 41 166 0q82 -40 82 -135q0 -47 -12 -96q-6 -26 -41 -133q-23 -61 -39 -109h-158l31 213q-53 9 -80 39q-31 31 -31 82z" />
<glyph unicode="-" horiz-adv-x="1009" d="M121 471v256h768v-256h-768z" />
<glyph unicode="." horiz-adv-x="540" d="M102 150q0 74 54 122q51 45 114 45q66 0 117 -45t51 -122q0 -78 -51 -123t-117 -45q-63 0 -114 45q-54 48 -54 123z" />
<glyph unicode="/" horiz-adv-x="1042" d="M47 -168l658 1741h288l-659 -1741h-287z" />
<glyph unicode="0" horiz-adv-x="1480" d="M102 614v209q0 317 183 488q180 168 460 168q274 0 453 -170q178 -169 178 -486v-207q0 -314 -180 -485q-181 -172 -446 -172q-173 0 -318 68q-143 67 -235 221q-95 151 -95 366zM420 614q0 -182 88 -276q90 -96 231 -96q144 0 234 96q88 94 88 276v207q0 178 -86 273 q-88 94 -230 94q-146 0 -235 -92q-90 -96 -90 -275v-207z" />
<glyph unicode="1" horiz-adv-x="927" d="M106 0v262h242v774l-229 -71v278l530 191v-1172h225v-262h-768z" />
<glyph unicode="2" horiz-adv-x="1382" d="M104 0v352q0 113 37 197q35 84 92 135q50 47 138 84q74 32 159 45q85 10 170 10q106 0 183 39q78 41 78 133q0 89 -70 138q-71 47 -193 47q-110 0 -184 -45q-80 -47 -86 -127h-307q6 125 57 211q52 87 135 137q82 49 179 74q99 22 206 22q244 0 412 -115 q164 -117 164 -336q0 -249 -152 -352q-149 -104 -422 -104q-58 0 -98 -6q-30 -4 -92 -23q-48 -18 -76 -59q-28 -45 -28 -107v-55h858v-295h-1160z" />
<glyph unicode="3" horiz-adv-x="1394" d="M86 436h322q21 -180 272 -180q42 0 82 6q36 5 90 25q48 15 78 53q28 39 28 90q0 174 -258 174h-219v260h199q36 0 86 4q23 2 82 17q45 12 70 43q24 30 24 78q0 60 -55 112q-58 49 -199 49q-235 0 -262 -139h-317q9 115 63 203q51 84 137 135q89 50 178 70q99 22 203 22 q135 0 244 -33q115 -35 209 -120q91 -85 112 -215q21 -122 -28 -216q-53 -95 -154 -141q125 -52 182 -155q55 -107 37 -236q-61 -371 -614 -371q-234 0 -404 117q-173 114 -188 348z" />
<glyph unicode="4" horiz-adv-x="1400" d="M49 586l787 846h317v-897h164v-277h-164v-260h-313v260h-764zM377 535h463v509z" />
<glyph unicode="5" horiz-adv-x="1347" d="M104 442h316q0 -87 82 -133q77 -45 184 -45q52 0 105 12q52 12 106 60q51 45 51 121q0 59 -26 98q-25 37 -70 59q-48 19 -86 27q-39 8 -84 8h-549v783h1051v-287h-754v-221h252q121 0 223 -21q96 -20 182 -72q88 -56 132 -145q45 -91 45 -229q0 -127 -52 -221 q-54 -97 -137 -150q-88 -54 -182 -78q-95 -26 -203 -26q-271 0 -426 110q-157 109 -160 350z" />
<glyph unicode="6" horiz-adv-x="1423" d="M121 465v506q0 161 88 274t221 166q128 51 289 51q259 0 418 -102q161 -106 170 -334h-299q-15 84 -99 125q-79 39 -192 39q-114 0 -199 -60q-83 -62 -86 -159v-160q66 72 143 102q82 29 193 29q244 0 406 -125q159 -126 159 -356q0 -129 -51 -221q-55 -99 -137 -152 q-82 -56 -191 -84q-104 -29 -225 -29q-250 0 -428 123q-180 122 -180 367zM436 461q3 -96 84 -148q79 -55 209 -55q123 0 205 55t82 148q0 97 -76 155q-77 56 -209 56t-215 -56q-83 -59 -80 -155z" />
<glyph unicode="7" horiz-adv-x="1146" d="M63 1143v291h1055l10 -158l-598 -1276h-358l535 1143h-644z" />
<glyph unicode="8" horiz-adv-x="1452" d="M98 453q3 76 62 165q58 88 164 125q-98 53 -146 148q-46 91 -31 201q21 175 183 276q157 98 395 98q255 0 412 -98q161 -103 182 -289q12 -105 -37 -190t-145 -129q117 -43 170 -133q50 -84 53 -174q3 -164 -86 -279t-232 -162q-145 -48 -317 -45q-183 3 -311 49 q-143 48 -228 158q-91 113 -88 279zM434 436q-3 -70 68 -129q68 -59 227 -59q158 0 229 59q67 58 64 129q-3 82 -78 131q-77 47 -215 47q-128 0 -211 -47q-81 -49 -84 -131zM469 1032q3 -74 74 -127q66 -51 186 -51t186 51q69 54 72 127q3 69 -63 123q-67 55 -199 55 q-140 0 -199 -59q-60 -60 -57 -119z" />
<glyph unicode="9" horiz-adv-x="1433" d="M98 977q0 127 52 221q54 97 137 154q90 59 192 84q101 26 223 26q250 0 431 -123q178 -123 178 -366v-506q0 -131 -51 -227q-51 -95 -144 -154q-84 -56 -194 -84q-108 -27 -226 -27q-258 0 -422 105q-165 106 -174 332h299q15 -80 103 -119q79 -39 196 -39q124 0 213 53 q85 52 88 160v160q-68 -75 -143 -101q-76 -30 -192 -30q-246 0 -404 125q-162 125 -162 356zM416 977q0 -97 78 -154q75 -57 206 -57q135 0 215 57q83 56 80 154q-3 94 -82 149q-85 54 -211 54q-121 0 -204 -56q-82 -55 -82 -147z" />
<glyph unicode=":" horiz-adv-x="571" d="M121 150q0 101 84 145q82 40 164 0q82 -43 82 -145q0 -76 -52 -119t-112 -43q-63 0 -115 43q-51 42 -51 119zM121 737q0 102 84 146q82 40 164 0q82 -43 82 -146q0 -76 -52 -119t-112 -43q-63 0 -115 43q-51 42 -51 119z" />
<glyph unicode=";" horiz-adv-x="587" d="M127 127q0 77 51 119q52 43 115 43q60 0 113 -41q51 -42 51 -121q0 -29 -2 -43q-3 -24 -9 -49q-9 -28 -12 -47q-12 -37 -16 -51q-7 -22 -17 -48q-5 -9 -18 -51q-13 -30 -18 -45h-158l37 203q-51 9 -84 45q-33 33 -33 86zM133 737q0 102 84 146q82 40 164 0 q82 -43 82 -146q0 -77 -51 -119q-52 -43 -113 -43q-63 0 -115 43q-51 42 -51 119z" />
<glyph unicode="&#x3c;" horiz-adv-x="856" d="M66 635v14l481 494l192 -203l-303 -299l301 -297l-190 -203z" />
<glyph unicode="=" horiz-adv-x="1167" d="M131 262v262h905v-262h-905zM131 743v265h905v-265h-905z" />
<glyph unicode="&#x3e;" horiz-adv-x="860" d="M119 956l192 187l484 -494v-14l-484 -494l-190 187l301 313z" />
<glyph unicode="?" horiz-adv-x="1224" d="M66 1001q3 220 149 342q147 123 389 123q218 0 363 -86q143 -85 178 -252q18 -100 -2 -174q-21 -77 -66 -116q-55 -51 -102 -84q-51 -38 -109 -76q-52 -34 -86 -92q-35 -59 -35 -131h-317q3 118 35 194q29 79 78 125q54 47 98 76q67 44 94 57q44 21 68 62q25 42 16 92 q-9 62 -67 96q-56 33 -146 33q-93 0 -153 -51q-63 -54 -66 -138h-319zM401 168q0 73 39 121q41 47 95 59q55 9 110 0q52 -11 94 -59q39 -48 39 -121q0 -87 -59 -137q-57 -51 -129 -51t-129 51q-60 51 -60 137z" />
<glyph unicode="@" horiz-adv-x="1900" d="M90 498q0 191 74 356q70 158 194 264q117 100 275 160q152 55 319 55q253 0 445 -88q193 -88 313 -276q119 -186 119 -455q0 -246 -107 -389q-109 -145 -286 -145q-74 0 -133 36q-61 37 -76 123q-46 -64 -131 -104q-90 -41 -152 -41q-225 0 -375 141q-149 140 -149 363 q0 202 125 342q128 140 315 164q106 9 199 -23q97 -34 153 -111l15 88l190 -30v-692q0 -29 17 -43q16 -13 32 -13q158 9 158 328q0 317 -174 479t-498 162q-272 0 -463 -182q-192 -180 -192 -469q0 -314 186 -469q187 -156 461 -156q162 0 301 80l84 -166 q-174 -104 -391 -104q-161 0 -307 49q-149 53 -271 147q-120 93 -196 256q-74 160 -74 363zM674 500q0 -116 69 -191q68 -80 197 -80q126 0 197 80q67 79 67 201q0 114 -67 190q-71 74 -199 74q-129 0 -197 -80q-67 -82 -67 -194z" />
<glyph unicode="A" d="M-8 0l643 1434h348l643 -1434h-346l-104 246h-736l-104 -246h-344zM561 528h494l-246 582z" />
<glyph unicode="B" horiz-adv-x="1488" d="M160 0v1434h706q218 0 359 -99q139 -103 139 -291q0 -204 -190 -292q130 -46 192 -166q42 -85 42 -176q0 -37 -7 -74q-62 -336 -522 -336h-719zM473 279h393q211 0 211 163q0 77 -55 123q-54 45 -160 45h-389v-331zM473 877h389q187 0 187 135q0 64 -48 106 q-45 39 -135 39h-393v-280z" />
<glyph unicode="C" horiz-adv-x="1425" d="M78 707q0 143 47 276q47 132 137 242q87 109 242 176q151 65 340 65q300 0 526 -221l-201 -198q-118 118 -325 118q-117 0 -207 -41q-90 -44 -141 -110q-55 -73 -78 -148q-25 -83 -25 -161q0 -81 25 -158q24 -77 76 -141q48 -65 139 -107q90 -41 211 -41q92 0 190 39 q101 37 162 98l199 -221q-211 -211 -551 -211q-197 0 -348 62q-154 60 -240 165q-91 108 -133 236q-45 125 -45 281z" />
<glyph unicode="D" horiz-adv-x="1542" d="M160 0v1434h588q238 0 403 -101q166 -104 238 -256q71 -157 71 -350q0 -144 -41 -272q-45 -132 -125 -230q-82 -104 -223 -164q-140 -61 -323 -61h-588zM475 295h273q113 0 192 39q81 37 125 102q39 62 61 139q19 74 19 156q0 176 -94 295t-303 119h-273v-850z" />
<glyph unicode="E" horiz-adv-x="1343" d="M160 0v1434h1063v-293h-750v-277h707v-280h-707v-289h778v-295h-1091z" />
<glyph unicode="F" horiz-adv-x="1282" d="M160 0v1432h1044v-293h-725v-340h680v-285h-680v-514h-319z" />
<glyph unicode="G" horiz-adv-x="1519" d="M78 715q0 155 47 291q48 136 137 241q86 105 240 168q151 62 340 62q318 0 534 -222l-198 -198q-133 127 -336 127q-211 0 -330 -119q-121 -121 -121 -350q0 -78 25 -158q21 -78 73 -147q51 -73 142 -113q87 -43 211 -43q176 0 305 100v230h-342v266h618v-625 q-187 -266 -583 -266q-204 0 -351 66q-154 66 -237 174q-87 107 -131 239q-43 130 -43 277z" />
<glyph unicode="H" horiz-adv-x="1595" d="M160 -2v1434h319v-574h641v574h316v-1434h-316v567h-641v-567h-319z" />
<glyph unicode="I" horiz-adv-x="636" d="M160 0v1434h317v-1434h-317z" />
<glyph unicode="J" horiz-adv-x="1466" d="M37 596h309q15 -324 326 -324q156 0 246 90q88 88 88 254v527h-398v291h717v-820q0 -288 -170 -467q-169 -178 -479 -178q-633 0 -639 627z" />
<glyph unicode="K" horiz-adv-x="1378" d="M160 0v1434h319v-592l477 592h387v-9l-581 -688l633 -719v-18h-385l-531 612v-612h-319z" />
<glyph unicode="L" horiz-adv-x="1228" d="M160 0v1434h319v-1141h717v-293h-1036z" />
<glyph unicode="M" horiz-adv-x="1886" d="M160 -2v1434h366l418 -551l420 551h362v-1434h-319v997l-442 -557h-58l-428 561v-1001h-319z" />
<glyph unicode="N" d="M160 0v1434h274l723 -932l-20 450v482h321v-1434h-274l-713 918l12 -472v-446h-323z" />
<glyph unicode="O" horiz-adv-x="1703" d="M78 717q0 345 213 549q211 202 561 202t561 -202q213 -204 213 -549t-213 -549q-212 -203 -561 -203t-561 203q-213 204 -213 549zM391 717q0 -203 129 -332q128 -131 332 -131q209 0 334 131q127 130 127 332q0 201 -127 334q-128 131 -334 131q-202 0 -332 -133 q-129 -132 -129 -332z" />
<glyph unicode="P" horiz-adv-x="1431" d="M160 0v1434h676q260 0 405 -148q143 -146 143 -366q0 -225 -141 -369q-142 -142 -407 -145h-357v-406h-319zM479 698h357q111 0 170 62t59 153t-59 156q-61 61 -170 61h-357v-432z" />
<glyph unicode="Q" horiz-adv-x="1703" d="M78 719q0 350 213 551q212 200 561 200q347 0 559 -200q211 -199 211 -551q0 -261 -125 -447l166 -168l-223 -221l-174 178q-178 -94 -414 -94q-348 0 -561 201t-213 551zM391 719q0 -206 129 -332q126 -129 332 -129t336 133q122 124 122 303q0 12 -1 25q0 204 -125 332 q-126 129 -332 129q-203 0 -332 -129q-129 -132 -129 -332z" />
<glyph unicode="R" horiz-adv-x="1484" d="M160 0v1434h680q247 0 389 -142q141 -141 141 -342q-3 -161 -72 -270q-70 -113 -260 -180l394 -475v-25h-355l-366 471h-232v-471h-319zM479 741h365q101 0 157 62q54 63 54 139q-3 85 -58 152q-56 65 -157 65h-361v-418z" />
<glyph unicode="S" horiz-adv-x="1339" d="M49 248l191 198q72 -96 198 -151q117 -51 240 -51q127 0 207 47t80 123v7q0 83 -68 128t-221 57q-118 11 -219 35q-85 20 -178 70q-85 46 -129 133q-44 78 -44 191v14q3 205 168 321q165 115 400 115q178 0 303 -49q122 -48 231 -172l-200 -177q-62 62 -148 91 q-92 30 -184 30q-109 0 -182 -43q-74 -44 -74 -114q0 -89 76 -123q72 -34 233 -49q551 -47 551 -465q0 -151 -88 -258t-221 -154q-122 -46 -295 -49h-15q-187 0 -354 74q-172 76 -258 221z" />
<glyph unicode="T" horiz-adv-x="1259" d="M35 1149v285h1190v-285h-437v-1149h-317v1149h-436z" />
<glyph unicode="U" horiz-adv-x="1585" d="M139 631v801h318v-801q0 -192 100 -289q94 -91 248 -90h29q294 21 294 379v801h318v-801q0 -316 -162 -484q-164 -173 -453 -182h-30q-280 0 -465 162q-197 173 -197 504z" />
<glyph unicode="V" horiz-adv-x="1511" d="M-6 1434h358l404 -1059l403 1059h359l-596 -1440h-330z" />
<glyph unicode="W" horiz-adv-x="2197" d="M4 1434h358l179 -490l129 -463l321 953h209l336 -953l123 461l170 492h358l-520 -1432h-262l-307 801l-297 -801h-262z" />
<glyph unicode="X" horiz-adv-x="1411" d="M14 0v10l488 711l-482 698v15h351l336 -510l333 510h351v-15l-484 -698l492 -711v-10h-355l-337 504l-338 -504h-355z" />
<glyph unicode="Y" horiz-adv-x="1441" d="M8 1417v17h369l344 -570l362 570h367v-17l-573 -848v-569h-320v569z" />
<glyph unicode="Z" horiz-adv-x="1286" d="M63 0v166l701 993h-666v275h1096v-140l-688 -995h704v-299h-1147z" />
<glyph unicode="[" horiz-adv-x="743" d="M147 -365v1807h525v-252h-234v-1301h234v-254h-525z" />
<glyph unicode="\" horiz-adv-x="1046" d="M49 1573h293l657 -1741h-290z" />
<glyph unicode="]" horiz-adv-x="743" d="M72 -111h233v1301h-233v252h524v-1807h-524v254z" />
<glyph unicode="^" horiz-adv-x="1329" d="M76 672l2 12l491 756h170l510 -752l2 -16h-313l-287 430l-274 -430h-301z" />
<glyph unicode="_" horiz-adv-x="1026" d="M29 8h968v-256h-968v256z" />
<glyph unicode="`" horiz-adv-x="540" d="M-6 1417v13h344l151 -287v-15h-258z" />
<glyph unicode="a" horiz-adv-x="1308" d="M68 506q0 244 151 389q145 139 369 139h10q99 0 180 -37q78 -37 119 -102l10 117h277v-1012h-266l-17 127q-47 -73 -135 -111q-84 -36 -176 -39h-9q-226 0 -368 142q-145 142 -145 387zM362 506q0 -125 76 -195q77 -71 191 -71q117 0 194 77q74 77 74 179q0 116 -70 198 q-71 80 -198 80q-113 0 -191 -72q-76 -73 -76 -196z" />
<glyph unicode="b" horiz-adv-x="1310" d="M125 0v1432h297v-543q116 143 317 143q227 0 365 -141q139 -145 139 -385q0 -238 -137 -381q-139 -145 -363 -145q-219 0 -335 149l-19 -129h-264zM426 506q0 -132 80 -197q78 -63 192 -63q116 0 183 73q65 74 65 187q0 115 -67 188q-69 72 -181 72q-108 0 -190 -70 t-82 -190z" />
<glyph unicode="c" horiz-adv-x="1040" d="M66 504q0 245 159 389q159 141 391 141q234 0 367 -139l-164 -186q-77 59 -190 59q-115 0 -191 -70t-76 -194q0 -118 76 -185q75 -69 185 -69q56 0 112 20t92 56l187 -193q-156 -156 -396 -156q-237 0 -395 134q-157 133 -157 393z" />
<glyph unicode="d" horiz-adv-x="1310" d="M68 506q0 240 139 385q138 141 364 141q202 0 318 -143v543h297v-1432h-264l-19 129q-114 -147 -336 -147q-221 0 -360 145t-139 379zM365 506q0 -114 67 -187q64 -73 180 -73q115 0 193 63q80 65 80 197q0 120 -82 190t-191 70q-111 0 -180 -72q-67 -73 -67 -188z" />
<glyph unicode="e" horiz-adv-x="1181" d="M68 516q0 234 145 379q143 143 391 143q268 0 412 -164q105 -123 105 -324q0 -66 -11 -140h-743q12 -76 84 -127q70 -52 190 -52q170 0 262 80l166 -184q-150 -150 -434 -150q-269 0 -418 146q-149 143 -149 393zM367 625h479q-3 76 -74 120q-71 41 -168 41 q-87 0 -151 -43q-66 -44 -86 -118z" />
<glyph unicode="f" horiz-adv-x="831" d="M47 745v248h178v60q0 203 123 305q120 102 287 102q141 0 280 -86l-100 -207q-68 41 -145 41q-70 0 -109 -39q-41 -41 -41 -116v-60h281v-248h-281v-745h-295v745h-178z" />
<glyph unicode="g" horiz-adv-x="1241" d="M68 526q0 246 159 381t387 135q159 0 238 -55l111 143l213 -163l-129 -154q104 -124 104 -275v-16q-6 -246 -217 -354q225 -102 225 -326q0 -213 -162 -329q-163 -117 -387 -117q-259 0 -395 121q-133 118 -133 334v10h274q15 -205 254 -205q104 0 178 47q72 51 72 139 q0 174 -246 174q-248 0 -397 140q-149 137 -149 370zM352 526q0 -110 76 -174q73 -67 186 -67q109 0 181 63q73 64 73 178q0 107 -71 181q-73 73 -183 73q-118 0 -188 -67q-74 -68 -74 -187z" />
<glyph unicode="h" horiz-adv-x="1243" d="M125 0v1434h297v-547q108 141 307 141q404 0 404 -485v-543h-295v541q0 103 -52 161t-141 58q-94 0 -160 -66q-65 -65 -65 -182v-512h-295z" />
<glyph unicode="i" horiz-adv-x="544" d="M104 1280q0 75 54 123q51 45 114 45q66 0 117 -45t51 -123t-51 -123t-117 -45q-63 0 -114 45q-54 48 -54 123zM125 0h295v1014h-295v-1014z" />
<glyph unicode="j" horiz-adv-x="542" d="M-162 -379q98 -58 201 -67q23 -2 44 -2q79 0 144 26q87 35 140 131q51 92 51 227v15v1063h-293v-1071q0 -140 -92 -140q-44 0 -111 33zM106 1280q0 75 54 123q51 45 114 45q64 0 115 -45t51 -123t-51 -123t-115 -45q-63 0 -114 45q-54 48 -54 123z" />
<glyph unicode="k" horiz-adv-x="1122" d="M125 0v1432h295v-818l299 396h348v-19l-371 -456l428 -512v-23h-354l-350 444v-444h-295z" />
<glyph unicode="l" horiz-adv-x="550" d="M129 0v1432h293v-1432h-293z" />
<glyph unicode="m" horiz-adv-x="1814" d="M125 0v1012h258l20 -115q76 137 267 137q212 0 295 -188q65 98 145 147q76 43 190 43q180 0 293 -110q111 -111 111 -373v-553h-297v547q0 211 -154 211q-82 0 -135 -62q-51 -63 -51 -153v-543h-291v543q0 221 -174 221q-82 0 -133 -66q-49 -64 -49 -157v-541h-295z" />
<glyph unicode="n" horiz-adv-x="1261" d="M125 0v1012h266l10 -129q118 153 320 153h8q422 0 422 -499v-537h-297v535q0 235 -209 235h-7q-93 0 -157 -72q-65 -74 -65 -176v-522h-291z" />
<glyph unicode="o" horiz-adv-x="1239" d="M66 504q0 231 153 381q149 149 399 149q252 0 404 -149q152 -152 152 -381q0 -235 -150 -379q-151 -148 -406 -148q-250 0 -401 148q-151 145 -151 379zM365 504q0 -108 65 -185q64 -79 188 -79q128 0 193 77q63 75 63 187q0 106 -65 186t-191 80q-123 0 -188 -80 t-65 -186z" />
<glyph unicode="p" horiz-adv-x="1310" d="M125 -446v1456h264l19 -129q114 147 335 147q226 0 363 -143t137 -381q0 -241 -139 -383q-138 -144 -365 -144q-200 0 -317 144v-567h-297zM426 504q0 -121 82 -191q81 -69 190 -69q114 0 181 73q67 70 67 187q0 112 -65 186q-68 74 -183 74q-113 0 -192 -64 q-80 -65 -80 -196z" />
<glyph unicode="q" horiz-adv-x="1310" d="M68 504q0 236 139 381q137 143 360 143q222 0 336 -147l19 129h264v-1456h-297v567q-117 -144 -318 -144q-226 0 -364 144q-139 142 -139 383zM365 504q0 -117 67 -187q67 -73 180 -73q110 0 191 69q82 70 82 191q0 131 -80 196q-79 64 -193 64q-115 0 -180 -74 q-67 -73 -67 -186z" />
<glyph unicode="r" horiz-adv-x="929" d="M125 0v1010h274l23 -111q94 135 270 135q142 0 248 -92l-123 -233q-68 51 -162 51q-100 0 -168 -62q-67 -64 -67 -172v-526h-295z" />
<glyph unicode="s" horiz-adv-x="1017" d="M49 133l127 209q151 -124 352 -127h13q54 0 98 23q41 22 41 58q0 89 -172 95q-66 3 -146 23q-69 15 -135 53q-62 33 -104 100q-39 62 -39 148q0 160 127 243q125 82 309 82q238 0 387 -131l-145 -184q-106 74 -240 74q-65 0 -106 -23q-39 -20 -39 -61q0 -85 149 -88 q68 -3 123 -9q65 -11 117 -28q62 -21 102 -55q45 -38 70 -93q29 -66 29 -141v-7q0 -133 -109 -233t-334 -100q-270 0 -475 172z" />
<glyph unicode="t" horiz-adv-x="858" d="M51 760v246h180v249l295 33v-282h256v-246h-258v-381q0 -135 115 -135q73 0 123 24l67 -245q-101 -40 -213 -46q-15 -1 -30 -1q-157 0 -250 87q-105 91 -105 316v381h-180z" />
<glyph unicode="u" horiz-adv-x="1261" d="M111 475v537h297v-535q0 -235 208 -235h8q96 0 158 71q64 73 64 176v523h291v-1012h-267l-10 133q-115 -153 -320 -153h-8q-421 0 -421 495z" />
<glyph unicode="v" horiz-adv-x="1208" d="M8 1012h332l145 -371l119 -334l119 334l145 371h332l-434 -1018h-324z" />
<glyph unicode="w" horiz-adv-x="1730" d="M18 1012h330l141 -416l66 -229l195 645h231l195 -645l65 229l141 416h330l-375 -1018h-293l-180 506l-178 -506h-295z" />
<glyph unicode="x" horiz-adv-x="1110" d="M16 0v6l342 502l-323 491v11h352l168 -301l168 301h352v-11l-321 -491l340 -502v-6h-353l-186 303l-184 -303h-355z" />
<glyph unicode="y" horiz-adv-x="1173" d="M6 1012h332l252 -637l248 637h325l-620 -1467h-322l209 486z" />
<glyph unicode="z" horiz-adv-x="980" d="M55 0v125l445 631h-406v256h795v-144l-424 -596h444v-272h-854z" />
<glyph unicode="{" horiz-adv-x="763" d="M61 467v217q59 0 93 27q30 21 41 53q6 27 6 72v290q0 210 125 304q123 94 358 51v-224q-91 18 -129 -14q-41 -35 -41 -133v-346v-31l-4 -31q-7 -22 -8 -26q-6 -18 -13 -25q-12 -12 -18 -22q-9 -14 -25 -21l-32 -16l-43 -19q31 -9 43 -14q4 -2 10.5 -5.5t12 -6t9.5 -4.5 q17 -10 25 -21q6 -10 18 -22q8 -12 13 -27q2 -12 8 -24q1 -3 1.5 -7.5t1 -11.5t1.5 -12v-31v-338q0 -99 33 -125q31 -25 137 -16v-232q-226 -43 -354 50q-129 92 -129 284v305q0 45 -6 72q-10 31 -41 55q-36 25 -93 25z" />
<glyph unicode="|" horiz-adv-x="577" d="M147 -152v1721h283v-1721h-283z" />
<glyph unicode="}" horiz-adv-x="763" d="M80 -98q105 -9 139 18q31 28 31 125v338q0 15 2 31q0 18 4 30q1 2 2 5.5t2.5 9t3.5 10.5q3 18 12 27q1 2 7.5 9t9.5 13q9 12 24 21q5 2 16.5 7.5t18.5 8.5q11 5 41 14q-16 5 -41 17q-29 13 -35 16q-16 10 -24 23q-3 4 -9 10.5t-8 9.5q-9 9 -12 27l-8 26q-4 8 -4 31 q-2 14 -2 31v346q0 97 -39 123q-42 28 -131 16v232q234 43 360 -52q123 -95 123 -303v-291q0 -47 8 -71q7 -31 39 -53q34 -27 92 -27v-217q-56 0 -92 -25q-32 -25 -39 -55q-8 -24 -8 -72v-305q0 -193 -127 -285q-130 -92 -356 -49v230z" />
<glyph unicode="~" horiz-adv-x="1273" d="M113 535q29 123 116 204q84 81 211 84q87 3 211 -65q124 -71 164 -80q83 -9 129 115l223 -64q-35 -144 -114 -217q-85 -79 -197 -82q-84 -3 -211 74t-201 74q-80 -3 -127 -113z" />
<glyph unicode="&#xa1;" horiz-adv-x="575" d="M106 895q0 84 58 133q56 47 123 47q66 0 125 -47q55 -49 55 -133t-55 -133q-58 -49 -125 -49q-68 0 -123 49q-58 49 -58 133zM129 -371h317q0 281 -2 502q-4 438 -4 498h-303z" />
<glyph unicode="&#xa2;" horiz-adv-x="1124" d="M92 477q0 194 111 332q108 135 299 188v158h270v-156q149 -35 258 -141l-168 -182q-71 74 -211 74q-103 0 -184 -78q-82 -79 -82 -195q0 -115 80 -192q79 -76 186 -76q133 0 217 96l183 -209q-96 -102 -279 -143v-156h-270v160q-186 52 -297 184q-113 131 -113 336z" />
<glyph unicode="&#xa3;" horiz-adv-x="1353" d="M109 0v291q105 3 145 69q39 62 45 183h-190v256h141q-28 89 -31 166q-9 218 129 356q137 137 389 137q231 0 363 -117q132 -120 129 -333h-277q-3 174 -215 174q-87 0 -145 -58q-62 -59 -62 -157q0 -62 25 -168h406v-256h-349q0 -72 -28 -158q-29 -81 -99 -96h772v-289 h-1148z" />
<glyph unicode="&#xa4;" horiz-adv-x="1271" d="M111 342l116 115q-70 177 13 362l-129 121l223 223l119 -119q86 27 184 27q87 0 178 -31l123 123l221 -223l-119 -117q74 -189 4 -366l115 -115l-217 -217l-121 117q-76 -27 -188 -27q-93 0 -182 27l-117 -121zM432 641q0 -93 57 -147q55 -58 144 -58q94 0 147 56 q51 54 51 149q0 96 -51 150q-52 55 -147 55q-89 0 -144 -55q-57 -57 -57 -150z" />
<glyph unicode="&#xa5;" horiz-adv-x="1556" d="M59 1417v17h361l180 -291l168 -297l176 295l191 293h366v-17l-457 -651h189v-219h-309v-119h309v-219h-309v-209h-314v209h-307v219h307v119h-307v219h193z" />
<glyph unicode="&#xa6;" horiz-adv-x="598" d="M150 -188v759h299v-759h-299zM150 698v758h299v-758h-299z" />
<glyph unicode="&#xa7;" horiz-adv-x="1259" d="M100 166l154 184q155 -152 369 -149q247 0 247 102q0 81 -239 78q-96 -3 -189 16q-85 14 -166 54q-74 33 -122 100q-45 63 -39 149q3 59 43 117q38 56 112 82q-71 26 -106 92q-35 65 -35 131q0 92 53 160q52 66 140 102q87 35 172 50q77 14 172 14q125 0 256 -41 q128 -41 204 -129l-176 -145q-118 83 -293 86q-96 3 -176 -21q-71 -24 -71 -76q0 -90 231 -90q78 0 145 -6q76 -10 142 -29q77 -23 123 -53q48 -33 79 -94q29 -62 23 -139q-6 -59 -47 -115q-39 -54 -107 -82q152 -65 152 -213q0 -102 -55 -172q-54 -69 -144 -104t-172 -50 q-77 -14 -166 -14q-161 0 -290 53q-142 54 -224 152zM393 713q0 -48 66 -76q67 -28 162 -31q81 -3 170 23q83 24 83 82q0 53 -67 80q-65 25 -166 28q-94 3 -172 -26q-76 -27 -76 -80z" />
<glyph unicode="&#xa8;" horiz-adv-x="1077" d="M121 1327q0 77 51 119q52 43 113 43q58 0 110 -43q51 -42 51 -119t-51 -119q-52 -43 -110 -43q-61 0 -113 43q-51 42 -51 119zM653 1327q0 76 52 119t112 43q59 0 111 -43q51 -42 51 -119t-51 -119q-52 -43 -111 -43q-60 0 -112 43t-52 119z" />
<glyph unicode="&#xa9;" horiz-adv-x="1693" d="M90 729q0 321 211 535q210 213 555 213q349 0 549 -209q199 -208 199 -539q0 -334 -199 -539q-199 -208 -549 -208q-349 0 -557 211q-209 209 -209 536zM315 729q0 -247 150 -397q149 -152 391 -152q247 0 385 150q139 148 139 399t-139 399t-385 148q-239 0 -391 -152 q-150 -153 -150 -395zM471 721q0 -182 119 -283q116 -104 282 -104q186 0 322 133l-139 139q-67 -67 -164 -67q-85 0 -143 49q-60 48 -60 133q0 93 60 147q59 50 143 50q89 0 160 -62l137 135q-132 129 -307 129q-170 0 -283 -104q-118 -109 -127 -295z" />
<glyph unicode="&#xaa;" horiz-adv-x="903" d="M49 1104q0 170 96 260q94 88 252 88q67 0 119 -27q56 -29 78 -71l14 80h207v-662h-213l-8 96q-28 -58 -84 -84q-59 -30 -121 -30q-150 0 -246 90q-94 88 -94 260zM78 457v200h745v-200h-745zM274 1104q0 -70 41 -111q39 -39 105 -39q90 0 127 76q37 74 0 150 q-37 73 -127 73q-64 0 -103 -39q-43 -40 -43 -110z" />
<glyph unicode="&#xab;" horiz-adv-x="1153" d="M61 608l285 455h311l-282 -455q166 -275 284 -456h-313zM483 608l285 455h313l-282 -455l284 -456h-315zM657 1063l2 2zM1081 1063l2 2z" />
<glyph unicode="&#xac;" horiz-adv-x="1112" d="M131 549v246h838v-500h-248v254h-590z" />
<glyph unicode="&#xad;" horiz-adv-x="1009" d="M121 471v256h768v-256h-768z" />
<glyph unicode="&#xae;" horiz-adv-x="1693" d="M90 729q0 321 211 535q210 213 555 213q349 0 549 -209q199 -208 199 -539q0 -334 -199 -539q-199 -208 -549 -208q-349 0 -557 211q-209 209 -209 536zM315 729q0 -247 150 -397q149 -152 391 -152q247 0 385 150q139 148 139 399t-139 399t-385 148q-239 0 -391 -152 q-150 -153 -150 -395zM557 348h211v221h86l123 -221h227l-170 264q70 21 113 76q42 53 45 123q3 62 -25 129q-26 63 -98 107q-70 43 -172 43h-340v-742zM764 741v166h141q27 0 49 -16q21 -18 27 -43q3 -25 0 -47q-3 -25 -25 -41q-22 -19 -49 -19h-143z" />
<glyph unicode="&#xaf;" horiz-adv-x="927" d="M102 1194v244h736v-244h-736z" />
<glyph unicode="&#xb0;" horiz-adv-x="747" d="M109 1098q-18 80 0 162q18 79 94 137q75 57 186 57q76 0 143 -31q59 -29 95 -77q33 -54 47 -109q15 -60 0 -119q-16 -61 -49 -106q-36 -51 -95 -80q-67 -31 -145 -31q-112 0 -184 57q-77 59 -92 140zM266 1141q10 -38 41 -60q34 -24 80 -24q49 0 84 24q31 22 41 60 q6 34 0 71q-10 38 -41 60q-34 24 -82 24q-47 0 -82 -24q-31 -22 -41 -60q-9 -37 0 -71z" />
<glyph unicode="&#xb1;" horiz-adv-x="1118" d="M125 23v258h868v-258h-868zM129 639v276h287v293h286v-293h287v-276h-287v-291h-286v291h-287z" />
<glyph unicode="&#xb2;" horiz-adv-x="770" d="M72 791v196q0 81 43 133q42 51 104 72q48 17 121 35q60 12 104 33q43 21 43 57q0 45 -49 63q-52 16 -100 2q-53 -15 -62 -53h-200q3 111 92 176q88 64 211 64q141 0 229 -64t88 -188q0 -85 -43 -137q-48 -55 -108 -74q-67 -22 -127 -33q-62 -14 -107 -33q-45 -20 -45 -53 h424v-196h-618z" />
<glyph unicode="&#xb3;" horiz-adv-x="788" d="M61 1012h215q9 -58 109 -58q48 0 82 21q35 18 35 55q0 72 -113 72h-119v153h111q115 0 115 72q0 65 -115 68q-111 3 -123 -58h-182q0 116 94 174q91 58 215 58q125 0 219 -64q96 -66 96 -180q0 -104 -98 -147q49 -14 86 -64q33 -44 33 -102q0 -133 -98 -185 q-101 -55 -236 -55q-123 0 -223 62q-100 60 -103 178z" />
<glyph unicode="&#xb4;" horiz-adv-x="569" d="M31 1128v15l151 287h344v-13l-237 -289h-258z" />
<glyph unicode="&#xb5;" horiz-adv-x="1267" d="M143 -436v1448h297v-557q0 -106 64 -164q63 -63 143 -60q88 0 152 64q65 65 65 182v535h299v-1012h-256l-30 104q-25 -66 -86 -108q-61 -40 -136 -43q-74 -3 -135 31q-64 34 -94 102v-522h-283z" />
<glyph unicode="&#xb6;" horiz-adv-x="1753" d="M68 846q-3 76 14 168q15 83 65 160q49 76 117 135q63 57 166 92q95 33 213 33h1024v-304h-174v-1564h-322v1564h-299v-1564h-321v819q-118 9 -203 51q-92 40 -147 105q-57 59 -95 141q-35 71 -38 164z" />
<glyph unicode="&#xb7;" horiz-adv-x="569" d="M106 608q0 84 56 131t123 47t123 -47q55 -46 55 -131q0 -83 -55 -129q-56 -47 -123 -47t-123 47t-56 129z" />
<glyph unicode="&#xb8;" horiz-adv-x="745" d="M104 -356l125 104q40 -49 127 -61q88 -12 109 49q15 57 -55 84q-71 27 -125 -15l-66 50l72 196h211l-35 -100q130 -6 180 -80q49 -70 37 -166q-12 -99 -88 -154q-76 -52 -168 -55q-98 0 -186 39q-93 41 -138 109z" />
<glyph unicode="&#xb9;" horiz-adv-x="583" d="M72 793v178h127v352l-107 -23v173l311 81v-583h132v-178h-463z" />
<glyph unicode="&#xba;" horiz-adv-x="870" d="M61 1104q0 171 103 260q101 88 270 88q172 0 273 -88q100 -87 100 -260q0 -172 -102 -264q-103 -92 -271 -92q-165 0 -268 92q-105 92 -105 264zM72 446v203h729v-203h-729zM287 1104q0 -69 43 -109q44 -41 104 -41q65 0 107 39q41 41 41 111q0 69 -41 110 q-42 39 -107 39q-62 0 -104 -39q-43 -40 -43 -110z" />
<glyph unicode="&#xbb;" horiz-adv-x="1150" d="M72 158l284 454l-282 455h311l285 -455l-285 -454h-313zM72 1067v2v-2zM489 158l285 454l-282 455h313l285 -455l-285 -454h-316zM489 1067v2v-2z" />
<glyph unicode="&#xbc;" horiz-adv-x="1648" d="M92 676v180h127v350l-108 -22v172l313 82v-582h129v-180h-461zM276 -2l799 1452h250l-803 -1452h-246zM879 301l342 457h266v-455h92v-178h-92v-125h-197v125h-403zM1087 303h203v256z" />
<glyph unicode="&#xbd;" horiz-adv-x="1675" d="M84 674v180h127v352l-107 -24v174l312 82v-584h131v-180h-463zM270 -4l799 1454h250l-803 -1454h-246zM977 -10v196q0 81 43 133q42 51 104 72q48 17 121 35q61 12 105 33q43 21 43 57q0 46 -50 64q-52 16 -100 2q-52 -15 -61 -54h-201q3 112 92 177q86 63 211 63 q143 0 229 -63q89 -65 89 -189q0 -85 -43 -137q-48 -54 -109 -74q-67 -22 -127 -33q-65 -15 -106 -32q-46 -21 -46 -54h424v-196h-618z" />
<glyph unicode="&#xbe;" horiz-adv-x="1726" d="M74 928h205q36 -51 108 -51q41 0 78 16q31 15 31 41q0 80 -109 80h-113v147h105q63 0 86 10q19 8 22 56q0 6 -4 22q-8 16 -32 29q-25 14 -70 14q-51 0 -78 -10q-27 -9 -39 -43h-178q0 107 92 166q88 55 207 55q118 0 209 -61t94 -172q0 -42 -22 -84q-24 -44 -68 -56 q50 -15 78 -57q29 -47 29 -90q0 -124 -99 -182q-105 -60 -227 -60q-117 0 -211 60q-91 58 -94 170zM360 -12l805 1462h250l-807 -1462h-248zM954 301l342 457h267v-455h92v-178h-92v-125h-197v125h-403zM1163 303h203v256z" />
<glyph unicode="&#xbf;" horiz-adv-x="1212" d="M90 -88q34 -165 180 -252q145 -86 361 -86q239 0 389 123q148 121 151 342h-321q-3 -83 -66 -137q-61 -52 -153 -52q-90 0 -146 33q-58 34 -67 97q-9 50 16 92q23 39 68 61q35 17 96 57q49 32 98 78q42 36 78 123q30 83 33 195h-318q0 -73 -34 -131q-32 -55 -86 -90 q-20 -13 -59.5 -41t-49.5 -35q-38 -28 -102 -84q-45 -42 -66 -119q-20 -74 -2 -174zM457 872q0 71 39 119q38 51 94 62q55 9 110 0q54 -12 95 -62q39 -48 39 -119q0 -73 -39 -118q-42 -51 -95 -60q-55 -12 -110 0q-52 8 -94 60q-39 45 -39 118z" />
<glyph unicode="&#xc0;" d="M-8 0l643 1434h348l643 -1434h-346l-104 246h-736l-104 -246h-344zM453 1839v12h344l151 -286v-15h-258zM561 528h494l-246 582z" />
<glyph unicode="&#xc1;" d="M-8 0h344l104 246h736l104 -246h346l-643 1434h-348zM561 528l248 582l246 -582h-494zM655 1550v15l152 286h344v-12l-238 -289h-258z" />
<glyph unicode="&#xc2;" d="M-8 0h344l104 246h736l104 -246h346l-643 1434h-348zM424 1561v10l307 287h154l305 -287v-10h-287l-96 86l-94 -86h-289zM561 528l248 582l246 -582h-494z" />
<glyph unicode="&#xc3;" d="M-8 0l643 1434h348l643 -1434h-346l-104 246h-736l-104 -246h-344zM420 1647q111 233 297 184q28 -6 74 -27q65 -29 73 -32q29 -10 58 2q32 13 47 59l182 -90q-108 -248 -285 -184q-26 9 -65 26q-16 7 -39 16.5t-25 10.5q-23 9 -53 12q-28 3 -49 -18q-24 -24 -41 -62z M561 528h494l-246 582z" />
<glyph unicode="&#xc4;" d="M-8 0h344l104 246h736l104 -246h346l-643 1434h-348zM377 1712q0 77 51 119q52 43 113 43q58 0 110 -43q51 -42 51 -119t-51 -119q-52 -43 -110 -43q-61 0 -113 43q-51 42 -51 119zM561 528l248 582l246 -582h-494zM909 1712q0 76 52 119t112 43q59 0 111 -43 q51 -42 51 -119t-51 -119q-52 -43 -111 -43q-60 0 -112 43t-52 119z" />
<glyph unicode="&#xc5;" d="M-8 0l641 1427q-115 74 -115 213q0 123 88 193q85 70 203 70q116 0 201 -70q84 -72 84 -193q0 -136 -111 -213l643 -1427h-348l-109 246h-718l-113 -246h-346zM580 543h460l-104 250l-127 350l-129 -359zM700 1593q30 -49 103 -49q77 0 104 49q27 50 -2 101 q-30 49 -102 49q-76 0 -103 -49q-30 -52 0 -101z" />
<glyph unicode="&#xc6;" horiz-adv-x="1826" d="M-55 0l899 1434h862v-279h-518v-295h483v-270h-483v-307h551v-283h-838v223h-455l-129 -223h-372zM610 504h291l12 520z" />
<glyph unicode="&#xc7;" horiz-adv-x="1431" d="M82 707q0 143 47 276q47 132 137 242q87 109 242 176q151 65 340 65q300 0 526 -221l-200 -198q-118 118 -326 118q-117 0 -207 -41q-90 -44 -141 -110q-55 -73 -78 -148q-25 -83 -25 -161q0 -81 25 -158q24 -77 76 -141q48 -65 139 -107q90 -41 211 -41q92 0 190 39 q101 37 162 98l199 -221q-199 -199 -512 -211l-25 -72q131 -6 180 -79q49 -70 37 -166q-12 -99 -88 -154q-76 -52 -168 -55q-98 0 -186 39q-93 41 -137 108l125 105q41 -50 127 -62q87 -12 108 49q15 57 -55 84q-71 27 -125 -14l-66 49l66 180q-300 46 -449 248 q-146 198 -149 484z" />
<glyph unicode="&#xc8;" horiz-adv-x="1343" d="M160 0v1434h1063v-293h-750v-277h707v-280h-707v-289h778v-295h-1091zM358 1862v12h344l152 -287v-14h-258z" />
<glyph unicode="&#xc9;" horiz-adv-x="1343" d="M160 0h1091v295h-778v289h707v280h-707v277h750v293h-1063v-1434zM543 1573v14l151 287h344v-12l-237 -289h-258z" />
<glyph unicode="&#xca;" horiz-adv-x="1343" d="M160 0h1091v295h-778v289h707v280h-707v277h750v293h-1063v-1434zM326 1573v10l307 287h153l306 -287v-10h-287l-96 86l-95 -86h-288z" />
<glyph unicode="&#xcb;" horiz-adv-x="1343" d="M160 0h1091v295h-778v289h707v280h-707v277h750v293h-1063v-1434zM283 1718q0 77 51 119q52 43 112 43q59 0 111 -43q51 -42 51 -119t-51 -119q-52 -43 -111 -43q-60 0 -112 43q-51 42 -51 119zM815 1718q0 77 51 119q52 43 113 43q59 0 111 -43q51 -42 51 -119t-51 -119 q-52 -43 -111 -43q-61 0 -113 43q-51 42 -51 119z" />
<glyph unicode="&#xcc;" horiz-adv-x="636" d="M-31 1849v13h344l152 -287v-14h-258zM160 0v1434h317v-1434h-317z" />
<glyph unicode="&#xcd;" horiz-adv-x="636" d="M160 0h317v1434h-317v-1434zM170 1552v15l152 286h344v-12l-238 -289h-258z" />
<glyph unicode="&#xce;" horiz-adv-x="636" d="M-63 1567v10l307 287h153l305 -287v-10h-286l-97 86l-94 -86h-288zM160 0h317v1434h-317v-1434z" />
<glyph unicode="&#xcf;" horiz-adv-x="636" d="M-109 1718q0 76 52 119t112 43q59 0 111 -43q51 -42 51 -119t-51 -119q-52 -43 -111 -43q-60 0 -112 43t-52 119zM160 0h317v1434h-317v-1434zM424 1718q0 77 51 119q52 43 113 43q58 0 110 -43t52 -119t-52 -119t-110 -43q-61 0 -113 43q-51 42 -51 119z" />
<glyph unicode="&#xd0;" horiz-adv-x="1550" d="M31 586v256h145v592h543q352 0 553 -195q198 -195 198 -500q0 -326 -192 -530q-194 -209 -559 -209h-543v586h-145zM481 283h238q217 0 325 120t111 336q3 208 -111 316q-113 104 -325 104h-238v-317h258v-256h-258v-303z" />
<glyph unicode="&#xd1;" d="M160 0v1434h274l723 -932l-20 450v482h321v-1434h-274l-713 918l12 -472v-446h-323zM395 1665q113 248 314 195q12 -3 63 -23q52 -25 64 -29q30 -13 55 -16q30 -3 51 12q18 13 35 58l192 -97q-113 -259 -301 -194q-42 14 -71 28q-32 16 -68 29q-23 9 -53 12 q-32 3 -53 -18q-26 -23 -43 -66z" />
<glyph unicode="&#xd2;" horiz-adv-x="1703" d="M78 717q0 345 213 549q211 202 561 202t561 -202q213 -204 213 -549t-213 -549q-212 -203 -561 -203t-561 203q-213 204 -213 549zM391 717q0 -203 129 -332q128 -131 332 -131q209 0 334 131q127 130 127 332q0 201 -127 334q-128 131 -334 131q-202 0 -332 -133 q-129 -132 -129 -332zM487 1870v12h344l152 -287v-14h-258z" />
<glyph unicode="&#xd3;" horiz-adv-x="1703" d="M78 717q0 -345 213 -549q212 -203 561 -203t561 203q213 204 213 549t-213 549q-211 202 -561 202t-561 -202q-213 -204 -213 -549zM391 717q0 200 129 332q130 133 332 133q206 0 334 -131q127 -133 127 -334q0 -202 -127 -332q-125 -131 -334 -131q-204 0 -332 131 q-129 129 -129 332zM696 1587v15l152 286h344v-12l-238 -289h-258z" />
<glyph unicode="&#xd4;" horiz-adv-x="1703" d="M78 717q0 -345 213 -549q212 -203 561 -203t561 203q213 204 213 549t-213 549q-211 202 -561 202t-561 -202q-213 -204 -213 -549zM391 717q0 200 129 332q130 133 332 133q206 0 334 -131q127 -133 127 -334q0 -202 -127 -332q-125 -131 -334 -131q-204 0 -332 131 q-129 129 -129 332zM469 1587v10l307 287h154l305 -287v-10h-287l-96 86l-94 -86h-289z" />
<glyph unicode="&#xd5;" horiz-adv-x="1703" d="M78 717q0 345 213 549q211 202 561 202t561 -202q213 -204 213 -549t-213 -549q-212 -203 -561 -203t-561 203q-213 204 -213 549zM391 717q0 -203 129 -332q128 -131 332 -131q209 0 334 131q127 130 127 332q0 201 -127 334q-128 131 -334 131q-202 0 -332 -133 q-129 -132 -129 -332zM467 1686q117 244 311 194q19 -5 62 -22q55 -26 63 -29q29 -14 53 -17q29 -3 52 13q18 13 34 57l191 -96q-114 -257 -297 -193q-32 11 -70 29q-14 6 -36.5 16t-30.5 13q-16 6 -56 10q-31 3 -53 -19q-25 -25 -41 -63z" />
<glyph unicode="&#xd6;" horiz-adv-x="1703" d="M78 717q0 -345 213 -549q212 -203 561 -203t561 203q213 204 213 549t-213 549q-211 202 -561 202t-561 -202q-213 -204 -213 -549zM391 717q0 200 129 332q130 133 332 133q206 0 334 -131q127 -133 127 -334q0 -202 -127 -332q-125 -131 -334 -131q-204 0 -332 131 q-129 129 -129 332zM428 1733q0 76 51 118q52 43 113 43q58 0 110 -43t52 -118q0 -76 -52 -119t-110 -43q-61 0 -113 43q-51 42 -51 119zM961 1733q0 76 51 118q52 43 112 43q59 0 111 -43q51 -42 51 -118q0 -77 -51 -119q-52 -43 -111 -43q-60 0 -112 43q-51 42 -51 119z " />
<glyph unicode="&#xd7;" horiz-adv-x="942" d="M102 467l183 178l-179 180l197 189l172 -183l182 183l183 -183l-191 -192l189 -186l-183 -174l-184 184l-178 -184z" />
<glyph unicode="&#xd8;" horiz-adv-x="1634" d="M78 702q0 143 47 279q47 134 135 244q90 109 234 174q145 65 325 65q128 0 258 -39l90 146h308l-168 -277q125 -107 190 -264t62 -323q-3 -148 -48 -273q-46 -128 -131 -235q-82 -103 -231 -170q-143 -64 -330 -64q-169 0 -297 49l-96 -157h-305l178 290 q-221 212 -221 555zM391 698q9 -165 70 -278l461 747q-64 9 -103 9q-113 0 -198 -43q-90 -47 -136 -117q-49 -70 -71 -152q-26 -89 -23 -166zM678 270q66 -14 141 -14q119 0 201 39q88 43 131 106q45 63 70 142q21 73 24 157q3 202 -100 332z" />
<glyph unicode="&#xd9;" horiz-adv-x="1585" d="M139 631v801h318v-801q0 -192 100 -289q102 -99 277 -90q294 21 294 379v801h318v-801q0 -316 -162 -484q-164 -173 -453 -182q-300 -9 -495 162q-197 173 -197 504zM457 1851v13h344l151 -287v-14h-258z" />
<glyph unicode="&#xda;" horiz-adv-x="1585" d="M139 631q0 -331 197 -504q195 -171 495 -162q289 9 453 182q162 168 162 484v801h-318v-801q0 -358 -294 -379q-175 -9 -277 90q-100 97 -100 289v801h-318v-801zM621 1561v14l151 287h344v-13l-237 -288h-258z" />
<glyph unicode="&#xdb;" horiz-adv-x="1585" d="M139 631q0 -331 197 -504q195 -171 495 -162q289 9 453 182q162 168 162 484v801h-318v-801q0 -358 -294 -379q-175 -9 -277 90q-100 97 -100 289v801h-318v-801zM412 1573v10l307 287h153l306 -287v-10h-287l-96 86l-95 -86h-288z" />
<glyph unicode="&#xdc;" horiz-adv-x="1585" d="M139 631q0 -331 197 -504q195 -171 495 -162q289 9 453 182q162 168 162 484v801h-318v-801q0 -358 -294 -379q-175 -9 -277 90q-100 97 -100 289v801h-318v-801zM375 1718q0 77 51 119q52 43 113 43q58 0 110 -43q51 -42 51 -119t-51 -119q-52 -43 -110 -43 q-61 0 -113 43q-51 42 -51 119zM907 1718q0 77 51 119q52 43 113 43q59 0 111 -43q51 -42 51 -119t-51 -119q-52 -43 -111 -43q-61 0 -113 43q-51 42 -51 119z" />
<glyph unicode="&#xdd;" horiz-adv-x="1441" d="M8 1417l549 -848v-569h320v569l573 848v17h-367l-362 -570l-344 570h-369v-17zM549 1569v14l151 287h344v-12l-237 -289h-258z" />
<glyph unicode="&#xde;" horiz-adv-x="1404" d="M160 0l2 1432h315v-230h340q129 0 238 -41q109 -44 172 -110q60 -63 100 -154q35 -90 35 -178q0 -89 -35 -176q-34 -87 -100 -156q-65 -68 -172 -108q-107 -43 -238 -43h-338v-236h-319zM479 520h338q108 0 170 62t62 135q0 71 -62 133q-61 61 -170 61h-338v-391z" />
<glyph unicode="&#xdf;" horiz-adv-x="1294" d="M125 0v1051q0 109 55 194q55 84 144 131q87 46 196 70q110 21 215 4q107 -18 195 -61q86 -42 143 -127q55 -85 55 -195q0 -91 -51 -162q-53 -74 -159 -98q148 -30 231 -129q80 -103 80 -227q0 -152 -55 -256q-55 -105 -148 -152q-90 -46 -215 -61q-120 -15 -258 16v123 q-2 51 -2 121q98 -22 162 -13q59 8 106 29q44 20 64 55q16 29 28 68q7 35 7 65q0 114 -78 168q-79 54 -195 54h-90v280h68q194 0 194 113q0 50 -37 84q-39 33 -92 39q-59 6 -110 -2q-52 -8 -95 -45q-40 -37 -43 -90v-1047h-315z" />
<glyph unicode="&#xe0;" horiz-adv-x="1308" d="M68 506q0 244 151 389q148 142 379 139q99 0 180 -37q78 -37 119 -102l10 117h277v-1012h-266l-17 127q-47 -73 -135 -111q-84 -36 -176 -39q-232 -3 -377 142q-145 142 -145 387zM305 1452v12h344l152 -286v-15h-258zM362 506q0 -125 76 -195q77 -71 191 -71 q117 0 194 77q74 77 74 179q0 116 -70 198q-71 80 -198 80q-113 0 -191 -72q-76 -73 -76 -196z" />
<glyph unicode="&#xe1;" horiz-adv-x="1308" d="M68 506q0 -245 145 -387q145 -145 377 -142q92 3 176 39q88 38 135 111l17 -127h266v1012h-277l-10 -117q-41 65 -119 102q-81 37 -180 37q-231 3 -379 -139q-151 -145 -151 -389zM362 506q0 123 76 196q78 72 191 72q127 0 198 -80q70 -82 70 -198q0 -102 -74 -179 q-77 -77 -194 -77q-114 0 -191 71q-76 70 -76 195zM475 1163v15l152 286h344v-12l-238 -289h-258z" />
<glyph unicode="&#xe2;" horiz-adv-x="1308" d="M68 506q0 -245 145 -387q145 -145 377 -142q92 3 176 39q88 38 135 111l17 -127h266v1012h-277l-10 -117q-41 65 -119 102q-81 37 -180 37q-231 3 -379 -139q-151 -145 -151 -389zM258 1165v11l307 286h154l305 -286v-11h-287l-96 86l-94 -86h-289zM362 506q0 123 76 196 q78 72 191 72q127 0 198 -80q70 -82 70 -198q0 -102 -74 -179q-77 -77 -194 -77q-114 0 -191 71q-76 70 -76 195z" />
<glyph unicode="&#xe3;" horiz-adv-x="1308" d="M68 506q0 244 151 389q148 142 379 139q99 0 180 -37q78 -37 119 -102l10 117h277v-1012h-266l-17 127q-47 -73 -135 -111q-84 -36 -176 -39q-232 -3 -377 142q-145 142 -145 387zM258 1288q121 245 307 187q23 -6 92 -41q67 -37 105 -31q35 6 59 67l183 -98 q-111 -254 -291 -184q-34 11 -68 29q-39 20 -65 30q-15 6 -54 10q-29 3 -51 -16q-27 -23 -43 -63zM362 506q0 -125 76 -195q77 -71 191 -71q117 0 194 77q74 77 74 179q0 116 -70 198q-71 80 -198 80q-113 0 -191 -72q-76 -73 -76 -196z" />
<glyph unicode="&#xe4;" horiz-adv-x="1308" d="M68 506q0 -245 145 -387q145 -145 377 -142q92 3 176 39q88 38 135 111l17 -127h266v1012h-277l-10 -117q-41 65 -119 102q-81 37 -180 37q-231 3 -379 -139q-151 -145 -151 -389zM223 1341q0 77 51 119q52 43 113 43q59 0 111 -43q51 -42 51 -119q0 -76 -51 -118 q-52 -43 -111 -43q-61 0 -113 43q-51 42 -51 118zM362 506q0 123 76 196q78 72 191 72q127 0 198 -80q70 -82 70 -198q0 -102 -74 -179q-77 -77 -194 -77q-114 0 -191 71q-76 70 -76 195zM756 1341q0 77 51 119q52 43 113 43q58 0 110 -43q51 -42 51 -119q0 -76 -51 -118 q-52 -43 -110 -43q-61 0 -113 43q-51 42 -51 118z" />
<glyph unicode="&#xe5;" horiz-adv-x="1308" d="M68 506q0 244 151 389q148 142 379 139q99 0 180 -37q78 -37 119 -102l10 117h277v-1012h-266l-17 127q-47 -73 -135 -111q-84 -36 -176 -39q-232 -3 -377 142q-145 142 -145 387zM362 506q0 -125 76 -195q77 -71 191 -71q117 0 194 77q74 77 74 179q0 116 -70 198 q-71 80 -198 80q-113 0 -191 -72q-76 -73 -76 -196zM473 1358q0 123 86 182q83 57 207 57q114 0 197 -59q79 -58 79 -180q0 -109 -84 -172q-83 -62 -192 -62q-120 0 -205 58q-88 55 -88 176zM659 1315q27 -49 101 -49q75 0 102 49q26 45 -2 96q-30 47 -100 47 q-74 0 -101 -47q-27 -49 0 -96z" />
<glyph unicode="&#xe6;" horiz-adv-x="1972" d="M68 506q0 245 151 387q150 141 363 141q204 0 307 -139l10 115h221v-103q115 133 332 133q223 0 367 -172q141 -173 86 -448h-750q21 -90 102 -144q74 -51 179 -51q149 0 250 84l157 -188q-142 -154 -407 -154q-216 0 -316 142l-12 -109h-215l-2 127q-30 -71 -123 -109 q-88 -38 -182 -41q-238 -3 -379 132q-139 133 -139 397zM362 506q0 -129 76 -199q74 -74 189 -74q128 0 202 86q72 84 72 187q0 99 -72 186q-75 84 -202 84q-115 0 -189 -71q-76 -70 -76 -199zM1161 637h471q-9 72 -65 113q-53 36 -129 36q-210 0 -277 -149z" />
<glyph unicode="&#xe7;" horiz-adv-x="1042" d="M68 504q0 245 159 389q158 143 391 143q234 0 367 -139l-164 -186q-77 59 -190 59t-191 -72q-75 -69 -75 -194q0 -118 75 -187t185 -69q56 0 112 20t92 56l187 -193q-139 -136 -344 -154l-25 -57q72 -6 121 -33q50 -24 68 -59q17 -33 26 -72q8 -34 -2 -65 q-15 -127 -127 -183q-110 -52 -239 -22q-132 35 -201 125l121 119q37 -46 123 -58q88 -9 108 47q15 55 -53 82q-70 28 -131 -10l-58 39l64 162q-182 38 -289 168q-110 128 -110 344z" />
<glyph unicode="&#xe8;" horiz-adv-x="1181" d="M68 516q0 234 145 379q143 143 391 143q268 0 412 -164q140 -163 94 -464h-743q12 -76 84 -127q70 -52 190 -52q170 0 262 80l166 -184q-150 -150 -434 -150q-269 0 -418 146q-149 143 -149 393zM285 1456v12h344l151 -286v-15h-258zM367 625h479q-3 76 -74 120 q-71 41 -168 41q-87 0 -151 -43q-66 -44 -86 -118z" />
<glyph unicode="&#xe9;" horiz-adv-x="1181" d="M68 516q0 234 145 379q143 143 391 143q268 0 412 -164q140 -163 94 -464h-743q12 -76 84 -127q70 -52 190 -52q170 0 262 80l166 -184q-150 -150 -434 -150q-269 0 -418 146q-149 143 -149 393zM367 625h479q-3 76 -74 120q-71 41 -168 41q-87 0 -151 -43 q-66 -44 -86 -118zM430 1157v14l152 287h344v-12l-238 -289h-258z" />
<glyph unicode="&#xea;" horiz-adv-x="1181" d="M68 516q0 234 145 379q143 143 391 143q268 0 412 -164q140 -163 94 -464h-743q12 -76 84 -127q70 -52 190 -52q170 0 262 80l166 -184q-150 -150 -434 -150q-269 0 -418 146q-149 143 -149 393zM221 1176v10l307 287h154l305 -287v-10h-287l-96 86l-94 -86h-289z M367 625h479q-3 76 -74 120q-71 41 -168 41q-87 0 -151 -43q-66 -44 -86 -118z" />
<glyph unicode="&#xeb;" horiz-adv-x="1181" d="M68 516q0 234 145 379q143 143 391 143q268 0 412 -164q140 -163 94 -464h-743q12 -76 84 -127q70 -52 190 -52q170 0 262 80l166 -184q-150 -150 -434 -150q-269 0 -418 146q-149 143 -149 393zM213 1315q0 96 80 137q77 41 158 0q77 -41 77 -137q0 -94 -77 -135 q-81 -41 -158 0q-80 41 -80 135zM367 625h479q-3 76 -74 120q-71 41 -168 41q-87 0 -151 -43q-66 -44 -86 -118zM690 1315q0 96 80 137q77 41 158 0q78 -41 78 -137q0 -94 -78 -135q-81 -41 -158 0q-80 41 -80 135z" />
<glyph unicode="&#xec;" horiz-adv-x="546" d="M4 1419v13h322l100 -289v-15h-254zM125 0v1012h297v-1012h-297z" />
<glyph unicode="&#xed;" horiz-adv-x="546" d="M123 1128v15l100 289h322v-13l-168 -291h-254zM125 0h297v1012h-297v-1012z" />
<glyph unicode="&#xee;" horiz-adv-x="546" d="M-66 1141v10l271 307h137l268 -307v-10h-252l-86 90l-82 -90h-256zM125 0h297v1012h-297v-1012z" />
<glyph unicode="&#xef;" horiz-adv-x="546" d="M-59 1296q0 94 75 134q77 41 154 0q76 -40 76 -134q0 -93 -76 -133t-152 0q-77 39 -77 133zM125 0h297v1012h-297v-1012zM334 1296q0 94 76 134t153 0q76 -40 76 -134q0 -93 -76 -133t-151 0q-78 41 -78 133z" />
<glyph unicode="&#xf0;" horiz-adv-x="1187" d="M68 487q0 169 98 306q93 133 272 180q201 38 316 -45q-70 123 -213 194q-142 71 -285 92l49 224q173 -24 313 -86l105 116l172 -137l-86 -96q160 -129 238 -320q74 -185 65 -403q-9 -238 -145 -383q-139 -145 -375 -145q-248 0 -385 149q-139 148 -139 354zM362 489 q0 -99 64 -172q61 -73 166 -73q106 0 166 69q58 67 67 176q9 101 -57 173q-66 69 -176 69q-103 0 -166 -72q-64 -73 -64 -170z" />
<glyph unicode="&#xf1;" horiz-adv-x="1261" d="M125 0v1012h266l10 -129q120 156 328 153q422 0 422 -499v-537h-297v535q0 235 -209 235q-98 3 -164 -72q-65 -74 -65 -176v-522h-291zM276 1288q107 226 287 180q35 -10 58 -20q11 -5 30 -14.5t27 -12.5q27 -12 49 -14q23 -6 45 10q18 15 33 53l176 -88 q-104 -242 -274 -180q-21 8 -64 27l-61 24q-20 7 -52 11q-24 3 -47 -17q-25 -22 -39 -59z" />
<glyph unicode="&#xf2;" horiz-adv-x="1239" d="M66 504q0 231 153 381q149 149 399 149q252 0 404 -149q152 -152 152 -381q0 -235 -150 -379q-151 -148 -406 -148q-250 0 -401 148q-151 145 -151 379zM291 1442v12h344l151 -287v-14h-258zM365 504q0 -108 65 -185q64 -79 188 -79q128 0 193 77q63 75 63 187 q0 106 -65 186t-191 80q-123 0 -188 -80t-65 -186z" />
<glyph unicode="&#xf3;" horiz-adv-x="1239" d="M66 504q0 -234 151 -379q151 -148 401 -148q255 0 406 148q150 144 150 379q0 229 -152 381q-152 149 -404 149q-250 0 -399 -149q-153 -150 -153 -381zM365 504q0 106 65 186t188 80q126 0 191 -80t65 -186q0 -112 -63 -187q-65 -77 -193 -77q-124 0 -188 79 q-65 77 -65 185zM477 1157v14l152 287h344v-12l-238 -289h-258z" />
<glyph unicode="&#xf4;" horiz-adv-x="1239" d="M66 504q0 -234 151 -379q151 -148 401 -148q255 0 406 148q150 144 150 379q0 229 -152 381q-152 149 -404 149q-250 0 -399 -149q-153 -150 -153 -381zM233 1165v11l308 286h153l305 -286v-11h-286l-97 86l-94 -86h-289zM365 504q0 106 65 186t188 80q126 0 191 -80 t65 -186q0 -112 -63 -187q-65 -77 -193 -77q-124 0 -188 79q-65 77 -65 185z" />
<glyph unicode="&#xf5;" horiz-adv-x="1239" d="M66 504q0 231 153 381q149 149 399 149q252 0 404 -149q152 -152 152 -381q0 -235 -150 -379q-151 -148 -406 -148q-250 0 -401 148q-151 145 -151 379zM244 1280q111 233 297 184q30 -7 73 -26q70 -32 74 -33q28 -9 57 2q33 13 48 59l182 -90q-108 -248 -285 -184 q-17 6 -65 27q-16 7 -38 15.5t-26 10.5q-23 9 -53 12q-28 3 -49 -18q-25 -25 -41 -61zM365 504q0 -108 65 -185q64 -79 188 -79q128 0 193 77q63 75 63 187q0 106 -65 186t-191 80q-123 0 -188 -80t-65 -186z" />
<glyph unicode="&#xf6;" horiz-adv-x="1239" d="M66 504q0 -234 151 -379q151 -148 401 -148q255 0 406 148q150 144 150 379q0 229 -152 381q-152 149 -404 149q-250 0 -399 -149q-153 -150 -153 -381zM217 1311q0 77 51 119q52 43 113 43q59 0 111 -43q51 -42 51 -119t-51 -119q-52 -43 -111 -43q-61 0 -113 43 q-51 42 -51 119zM365 504q0 106 65 186t188 80q126 0 191 -80t65 -186q0 -112 -63 -187q-65 -77 -193 -77q-124 0 -188 79q-65 77 -65 185zM705 1311q0 77 51 119q52 43 112 43q59 0 111 -43q51 -42 51 -119t-51 -119q-52 -43 -111 -43q-60 0 -112 43q-51 42 -51 119z" />
<glyph unicode="&#xf7;" horiz-adv-x="1130" d="M94 518h942v264h-942v-264zM403 270q0 103 82 146q79 40 162 0q80 -44 80 -146q0 -75 -49 -118q-52 -43 -113 -43t-110 43q-52 43 -52 118zM403 1038q0 103 82 146q79 40 162 0q80 -44 80 -146q0 -75 -49 -118q-52 -43 -113 -43t-110 43q-52 43 -52 118z" />
<glyph unicode="&#xf8;" horiz-adv-x="1239" d="M66 504q0 233 153 383q149 149 399 149q87 0 173 -22l67 114h258l-127 -215q185 -150 185 -409q0 -235 -150 -379q-151 -148 -406 -148q-94 0 -167 21l-64 -111h-258l121 207q-184 144 -184 410zM365 504q0 -89 38 -150l244 414q-6 2 -29 2q-123 0 -188 -80t-65 -186z M594 240h24q128 0 193 77q63 75 63 187q0 86 -38 147z" />
<glyph unicode="&#xf9;" horiz-adv-x="1261" d="M111 475v537h297v-535q0 -235 208 -235q101 -3 166 71q64 73 64 176v523h291v-1012h-267l-10 133q-117 -156 -328 -153q-421 0 -421 495zM289 1434v12h344l151 -287v-14h-258z" />
<glyph unicode="&#xfa;" horiz-adv-x="1261" d="M111 475q0 -495 421 -495q211 -3 328 153l10 -133h267v1012h-291v-523q0 -103 -64 -176q-65 -74 -166 -71q-208 0 -208 235v535h-297v-537zM463 1153v14l151 287h344v-12l-237 -289h-258z" />
<glyph unicode="&#xfb;" horiz-adv-x="1261" d="M111 475q0 -495 421 -495q211 -3 328 153l10 -133h267v1012h-291v-523q0 -103 -64 -176q-65 -74 -166 -71q-208 0 -208 235v535h-297v-537zM236 1161v10l307 287h153l305 -287v-10h-286l-97 86l-94 -86h-288z" />
<glyph unicode="&#xfc;" horiz-adv-x="1261" d="M111 475q0 -495 421 -495q211 -3 328 153l10 -133h267v1012h-291v-523q0 -103 -64 -176q-65 -74 -166 -71q-208 0 -208 235v535h-297v-537zM195 1317q0 97 81 137q82 40 164 0t82 -137q0 -95 -82 -135t-164 0q-81 40 -81 135zM729 1317q0 97 82 137t164 0q80 -41 80 -137 q0 -74 -51 -113q-53 -41 -111 -41q-60 0 -113 41q-51 39 -51 113z" />
<glyph unicode="&#xfd;" horiz-adv-x="1173" d="M6 1012l424 -981l-209 -486h322l620 1467h-325l-248 -637l-252 637h-332zM408 1149v14l151 287h344v-12l-237 -289h-258z" />
<glyph unicode="&#xfe;" horiz-adv-x="1308" d="M125 -422v1856h295v-531q43 64 131 98q85 33 166 33q235 3 379 -135q143 -137 143 -395q0 -254 -139 -393q-138 -138 -371 -138q-86 0 -168 33q-86 29 -141 103v-531h-295zM446 504q0 -99 76 -172q74 -74 174 -74q107 0 178 68q72 69 72 178t-72 178q-71 68 -178 68 q-100 0 -174 -74q-76 -73 -76 -172z" />
<glyph unicode="&#xff;" horiz-adv-x="1173" d="M6 1012l424 -981l-209 -486h322l620 1467h-325l-248 -637l-252 637h-332zM168 1327q0 77 51 119q52 43 113 43q58 0 110 -43t52 -119t-52 -119t-110 -43q-61 0 -113 43q-51 42 -51 119zM700 1327q0 76 52 119t112 43q59 0 111 -43q51 -42 51 -119t-51 -119 q-52 -43 -111 -43q-60 0 -112 43t-52 119z" />
<glyph unicode="&#x152;" horiz-adv-x="2125" d="M80 723q0 338 190 543q187 202 545 202q88 0 262 -32h934v-285h-645v-281h606v-276h-606v-303h662v-287h-949q-121 -39 -264 -39q-360 0 -549 207q-186 204 -186 551zM399 721q0 -203 113 -346q113 -146 328 -146q136 0 239 56v866q-125 55 -250 55q-200 0 -313 -131 q-114 -132 -117 -354z" />
<glyph unicode="&#x153;" horiz-adv-x="1957" d="M66 504q0 233 153 383q149 149 399 149q123 0 224 -49t162 -137q60 87 159 139q98 49 219 49q268 0 412 -164q140 -166 94 -466h-749q9 -77 86 -127q73 -52 194 -52q170 0 262 80l166 -184q-75 -75 -194 -113q-113 -39 -240 -39q-264 0 -405 193q-61 -88 -162 -137 q-101 -52 -228 -52q-250 0 -401 148q-151 145 -151 379zM365 504q0 -102 65 -182t188 -80q127 0 195 80q68 77 68 182q0 103 -68 186q-71 80 -195 80q-123 0 -188 -80t-65 -186zM1139 623h491q-3 78 -74 122q-71 41 -167 41q-92 0 -160 -45q-69 -46 -90 -118z" />
<glyph unicode="&#x178;" horiz-adv-x="1441" d="M8 1417l549 -848v-569h320v569l573 848v17h-367l-362 -570l-344 570h-369v-17zM307 1714q0 96 78 137t156 0q77 -41 77 -137q0 -94 -77 -135q-78 -41 -156 0t-78 135zM815 1714q0 96 78 137t156 0q75 -40 75 -137q0 -71 -47 -112q-50 -41 -106 -41q-60 0 -107 41 q-49 40 -49 112z" />
<glyph unicode="&#x2c6;" horiz-adv-x="923" d="M68 1176v10l307 287h153l306 -287v-10h-287l-96 86l-95 -86h-288z" />
<glyph unicode="&#x2dc;" horiz-adv-x="856" d="M53 1421q111 234 297 185q28 -6 74 -27q70 -32 74 -33q28 -9 57 2q32 13 47 60l182 -90q-108 -249 -284 -185q-21 7 -66 27q-16 7 -37.5 16t-25.5 10q-27 10 -54 13t-49 -19q-25 -25 -41 -61z" />
<glyph unicode="&#x2000;" horiz-adv-x="951" />
<glyph unicode="&#x2001;" horiz-adv-x="1903" />
<glyph unicode="&#x2002;" horiz-adv-x="951" />
<glyph unicode="&#x2003;" horiz-adv-x="1903" />
<glyph unicode="&#x2004;" horiz-adv-x="634" />
<glyph unicode="&#x2005;" horiz-adv-x="475" />
<glyph unicode="&#x2006;" horiz-adv-x="317" />
<glyph unicode="&#x2007;" horiz-adv-x="317" />
<glyph unicode="&#x2008;" horiz-adv-x="237" />
<glyph unicode="&#x2009;" horiz-adv-x="380" />
<glyph unicode="&#x200a;" horiz-adv-x="105" />
<glyph unicode="&#x2010;" horiz-adv-x="1009" d="M121 471v256h768v-256h-768z" />
<glyph unicode="&#x2011;" horiz-adv-x="1009" d="M121 471v256h768v-256h-768z" />
<glyph unicode="&#x2012;" horiz-adv-x="1009" d="M121 471v256h768v-256h-768z" />
<glyph unicode="&#x2013;" horiz-adv-x="1222" d="M119 457v256h985v-256h-985z" />
<glyph unicode="&#x2014;" horiz-adv-x="1413" d="M119 463v256h1175v-256h-1175z" />
<glyph unicode="&#x2018;" horiz-adv-x="559" d="M80 936l174 500h227l-100 -500h-301z" />
<glyph unicode="&#x2019;" horiz-adv-x="546" d="M94 938l101 496h301l-172 -496h-230z" />
<glyph unicode="&#x201a;" horiz-adv-x="573" d="M53 -276l101 495h299l-172 -495h-228z" />
<glyph unicode="&#x201c;" horiz-adv-x="913" d="M82 936l170 496h229l-121 -496h-278zM459 936l147 496h230l-101 -496h-276z" />
<glyph unicode="&#x201d;" horiz-adv-x="903" d="M96 936l101 496h276l-147 -496h-230zM451 936l120 496h279l-170 -496h-229z" />
<glyph unicode="&#x201e;" horiz-adv-x="960" d="M53 -276l101 495h299l-172 -495h-228zM440 -276l101 495h299l-172 -495h-228z" />
<glyph unicode="&#x2022;" horiz-adv-x="858" d="M145 645q0 125 82 201q81 78 203 78q119 0 203 -78q80 -77 80 -201q0 -122 -80 -199q-83 -77 -203 -77q-123 0 -203 77q-82 76 -82 199z" />
<glyph unicode="&#x2026;" horiz-adv-x="1513" d="M102 150q0 74 54 122q51 45 114 45q66 0 117 -45t51 -122q0 -78 -51 -123t-117 -45q-63 0 -114 45q-54 48 -54 123zM588 150q0 75 53 122q51 45 115 45q63 0 114 -45q52 -46 52 -122q0 -77 -52 -123q-51 -45 -114 -45q-64 0 -115 45q-53 47 -53 123zM1077 150 q0 75 53 122q51 45 115 45t115 -45t51 -122q0 -78 -51 -123t-115 -45t-115 45q-53 47 -53 123z" />
<glyph unicode="&#x202f;" horiz-adv-x="380" />
<glyph unicode="&#x2039;" horiz-adv-x="729" d="M61 604l285 455h311l-282 -455q241 -394 284 -457h-313zM657 1059l2 2z" />
<glyph unicode="&#x203a;" horiz-adv-x="731" d="M72 160l282 454l-280 455h311l285 -455l-285 -454h-313zM72 1069v2v-2z" />
<glyph unicode="&#x205f;" horiz-adv-x="475" />
<glyph unicode="&#x20ac;" horiz-adv-x="1290" d="M92 432v223h121v52q0 49 2 63h-123v227h170q77 213 256 340q178 129 455 129q124 0 227 -34l-88 -269q-74 19 -139 19q-247 0 -373 -185h404l-50 -227h-434q-4 -62 -4 -70q0 -35 2 -45h400l-46 -223h-280q69 -100 184 -141q110 -43 197 -43q81 0 155 26l91 -276 q-115 -31 -246 -31q-285 0 -467 123q-183 119 -254 342h-160z" />
<glyph unicode="&#x2122;" horiz-adv-x="1691" d="M129 1243v189h604v-189h-194v-418h-217v418h-193zM807 823v609h213l156 -189l153 189h215v-609h-215v185l12 145q-35 -53 -81 -111q-64 -85 -66 -88h-39l-145 199l10 -145v-185h-213z" />
<glyph unicode="&#x25fc;" horiz-adv-x="1013" d="M0 0v1014h1014v-1014h-1014z" />
<glyph unicode="&#xfb01;" horiz-adv-x="1329" d="M47 737h182v-737h295v737h250v256h-250v60q0 79 39 118q41 41 99 41q39 0 88 -22l86 227q-103 47 -197 47q-167 0 -287 -102q-123 -105 -123 -309v-60h-182v-256zM891 1280q0 76 53 123q51 45 115 45q66 0 117 -45t51 -123t-51 -123t-117 -45q-64 0 -115 45 q-53 47 -53 123zM911 0h295v1014h-295v-1014z" />
<glyph unicode="&#xfb02;" horiz-adv-x="1335" d="M47 737v256h182v60q0 204 123 309q120 102 287 102q106 0 197 -45l-86 -227q-41 20 -88 20q-58 0 -99 -41q-39 -39 -39 -118v-60h236v-256h-236v-737h-295v737h-182zM911 0v1434h295v-1434h-295z" />
</font>
</defs>
</svg>
